  0
SECTION
  2
HEADER
  9
$ACADVER
  1
AC1006
  9
$DWGCODEPAGE
  3
ansi_950
  9
$INSBASE
 10
0.0
 20
0.0
 30
0.0
  9
$EXTMIN
 10
139.9850475275715
 20
-0.0090630292066862
  9
$EXTMAX
 10
280.014954428206
 20
95.00138900615434
  9
$LIMMIN
 10
0.0
 20
0.0
  9
$LIMMAX
 10
420.0
 20
297.0
  9
$ORTHOMODE
 70
     1
  9
$REGENMODE
 70
     1
  9
$FILLMODE
 70
     1
  9
$QTEXTMODE
 70
     0
  9
$MIRRTEXT
 70
     1
  9
$DRAGMODE
 70
     2
  9
$LTSCALE
 40
1.0
  9
$OSMODE
 70
    37
  9
$ATTMODE
 70
     1
  9
$TEXTSIZE
 40
6.0
  9
$TRACEWID
 40
1.0
  9
$TEXTSTYLE
  7
STANDARD
  9
$CLAYER
  8
MARK
  9
$CELTYPE
  6
BYLAYER
  9
$CECOLOR
 62
   256
  9
$DIMSCALE
 40
1.0
  9
$DIMASZ
 40
1.25
  9
$DIMEXO
 40
0.42
  9
$DIMDLI
 40
1.5
  9
$DIMRND
 40
0.0
  9
$DIMDLE
 40
0.0
  9
$DIMEXE
 40
0.42
  9
$DIMTP
 40
0.0
  9
$DIMTM
 40
0.0
  9
$DIMTXT
 40
1.25
  9
$DIMCEN
 40
2.5
  9
$DIMTSZ
 40
0.0
  9
$DIMTOL
 70
     0
  9
$DIMLIM
 70
     0
  9
$DIMTIH
 70
     0
  9
$DIMTOH
 70
     0
  9
$DIMSE1
 70
     0
  9
$DIMSE2
 70
     0
  9
$DIMTAD
 70
     3
  9
$DIMZIN
 70
     8
  9
$DIMBLK
  1
OPEN30
  9
$DIMASO
 70
     1
  9
$DIMSHO
 70
     1
  9
$DIMPOST
  1

  9
$DIMAPOST
  1

  9
$DIMALT
 70
     0
  9
$DIMALTD
 70
     3
  9
$DIMALTF
 40
0.03937007874016
  9
$DIMLFAC
 40
1.0
  9
$DIMTOFL
 70
     1
  9
$DIMTVP
 40
0.0
  9
$DIMTIX
 70
     0
  9
$DIMSOXD
 70
     0
  9
$DIMSAH
 70
     0
  9
$DIMBLK1
  1

  9
$DIMBLK2
  1

  9
$LUNITS
 70
     2
  9
$LUPREC
 70
     4
  9
$SKETCHINC
 40
1.0
  9
$FILLETRAD
 40
10.0
  9
$AUNITS
 70
     0
  9
$AUPREC
 70
     0
  9
$MENU
  1
.
  9
$ELEVATION
 40
0.0
  9
$THICKNESS
 40
0.0
  9
$LIMCHECK
 70
     0
  9
$CHAMFERA
 40
0.2
  9
$CHAMFERB
 40
0.2
  9
$SKPOLY
 70
     0
  9
$TDCREATE
 40
2453388.513071273
  9
$TDUPDATE
 40
2460773.472119942
  9
$TDINDWG
 40
0.5490311921
  9
$TDUSRTIMER
 40
0.5490310764
  9
$USRTIMER
 70
     1
  9
$ANGBASE
 50
0.0
  9
$ANGDIR
 70
     0
  9
$PDMODE
 70
     0
  9
$PDSIZE
 40
0.0
  9
$PLINEWID
 40
0.3
  9
$COORDS
 70
     1
  9
$SPLFRAME
 70
     0
  9
$SPLINETYPE
 70
     6
  9
$SPLINESEGS
 70
     8
  9
$ATTDIA
 70
     0
  9
$ATTREQ
 70
     1
  9
$HANDLING
 70
     1
  9
$HANDSEED
  5
56C6
  9
$SURFTAB1
 70
     6
  9
$SURFTAB2
 70
     6
  9
$SURFTYPE
 70
     6
  9
$SURFU
 70
     6
  9
$SURFV
 70
     6
  9
$UCSNAME
  2

  9
$UCSORG
 10
0.0
 20
0.0
 30
0.0
  9
$UCSXDIR
 10
1.0
 20
0.0
 30
0.0
  9
$UCSYDIR
 10
0.0
 20
1.0
 30
0.0
  9
$USERI1
 70
     0
  9
$USERI2
 70
     0
  9
$USERI3
 70
     0
  9
$USERI4
 70
     0
  9
$USERI5
 70
     0
  9
$USERR1
 40
0.0
  9
$USERR2
 40
0.0
  9
$USERR3
 40
0.0
  9
$USERR4
 40
0.0
  9
$USERR5
 40
0.0
  9
$WORLDVIEW
 70
     1
  0
ENDSEC
  0
SECTION
  2
TABLES
  0
TABLE
  2
VPORT
 70
     1
  0
VPORT
  2
*ACTIVE
 70
     0
 10
0.0
 20
0.0
 11
1.0
 21
1.0
 12
210.0000009778888
 22
47.49616298847383
 13
0.0
 23
0.0
 14
10.0
 24
10.0
 15
10.0
 25
10.0
 16
0.0
 26
0.0
 36
1.0
 17
0.0
 27
0.0
 37
0.0
 40
95.6890981213279
 41
1.764004767580453
 42
50.0
 43
0.0
 44
0.0
 50
0.0
 51
0.0
 71
     0
 72
 20000
 73
     1
 74
     3
 75
     0
 76
     0
 77
     0
 78
     0
  0
ENDTAB
  0
TABLE
  2
LTYPE
 70
    19
  0
LTYPE
  2
CONTINUOUS
 70
     0
  3
Solid line
 72
    65
 73
     0
 40
0.0
  0
LTYPE
  2
CENTER
 70
     0
  3
Center ____ _ ____ _ ____ _ ____ _ ____ _ ____
 72
    65
 73
     4
 40
50.8
 49
31.75
 49
-6.35
 49
6.35
 49
-6.35
  0
LTYPE
  2
HIDDEN
 70
     0
  3
Hidden __ __ __ __ __ __ __ __ __ __ __ __ __ _
 72
    65
 73
     2
 40
9.524999999999999
 49
6.35
 49
-3.175
  0
LTYPE
  2
CENTERX2
 70
     0
  3
Center (2x) ________  __  ________  __  _____
 72
    65
 73
     4
 40
101.6
 49
63.5
 49
-12.7
 49
12.7
 49
-12.7
  0
LTYPE
  2
PHANTOM
 70
     0
  3
Phantom ______  __  __  ______  __  __  ______
 72
    65
 73
     6
 40
63.5
 49
31.75
 49
-6.35
 49
6.35
 49
-6.35
 49
6.35
 49
-6.35
  0
LTYPE
  2
HIDDEN2
 70
     0
  3
Hidden (.5x) _ _ _ _ _ _ _ _ _ _ _ _ _ _ _ _ _
 72
    65
 73
     2
 40
4.762499999999999
 49
3.175
 49
-1.5875
  0
LTYPE
  2
HIDDENX2
 70
     0
  3
Hidden (2x) ____ ____ ____ ____ ____ ____ ____
 72
    65
 73
     2
 40
19.05
 49
12.7
 49
-6.35
  0
LTYPE
  2
CENTER2
 70
     0
  3
Center (.5x) ___ _ ___ _ ___ _ ___ _ ___ _ ___
 72
    65
 73
     4
 40
1.125
 49
0.75
 49
-0.125
 49
0.125
 49
-0.125
  0
LTYPE
  2
PHANTOM2
 70
     0
  3
Phantom (.5x) ___ _ _ ___ _ _ ___ _ _ ___ _ _
 72
    65
 73
     6
 40
1.25
 49
0.625
 49
-0.125
 49
0.125
 49
-0.125
 49
0.125
 49
-0.125
  0
LTYPE
  2
AM_ISO02W050
 70
     0
  3
__ __ __ __ __ __ __ __ __ __ __ __ __ __ __
 72
    65
 73
     2
 40
7.5
 49
6.0
 49
-1.5
  0
LTYPE
  2
AM_ISO08W050
 70
     0
  3
____ . ____ . ____ . ____ . ____ . ____ . ____
 72
    65
 73
     4
 40
18.0
 49
12.0
 49
-1.5
 49
3.0
 49
-1.5
  0
LTYPE
  2
AM_ISO09W050
 70
     0
  3
_____ . . _____ . . _____ . . ____ .. ____
 72
    65
 73
     6
 40
22.5
 49
12.0
 49
-1.5
 49
3.0
 49
-1.5
 49
3.0
 49
-1.5
  0
LTYPE
  2
AMCONSTR
 70
     0
  3
_______________________
 72
    65
 73
     2
 40
9999.0
 49
9999.0
 49
0.0
  0
LTYPE
  2
AM_ISO08W050X2
 70
     0
  3
__ . __ . __ . __ . __ . __
 72
    65
 73
     4
 40
9.0
 49
6.0
 49
-0.75
 49
1.5
 49
-0.75
  0
LTYPE
  2
AM_ISO02W050X2
 70
     0
  3
 _ _ _ _ _ _ _ _ _ _ _ _
 72
    65
 73
     2
 40
3.75
 49
3.0
 49
-0.75
  0
LTYPE
  2
AMZIGZAG
 70
     0
  3
/\/-/\/-/\/-/\/-/\/-/\/
 72
    65
 73
     2
 40
11.0001
 49
0.0001
 49
-11.0
  0
LTYPE
  2
AMZIGZAG2
 70
     0
  3
/\/-/\/-/\/-/\/-/\/-/\/
 72
    65
 73
     2
 40
0.4401
 49
0.0001
 49
-0.44
  0
LTYPE
  2
ACANSTGB
 70
     0
  3
__ . . __ . .
 72
    65
 73
     6
 40
0.35433070866
 49
0.15748031496
 49
-0.03937007874
 49
0.03937007874
 49
-0.03937007874
 49
0.03937007874
 49
-0.03937007874
  0
LTYPE
  2
ACANSTGL
 70
     0
  3
_ _ _ _ _
 72
    65
 73
     2
 40
0.11811023622
 49
0.07874015748
 49
-0.03937007874
  0
ENDTAB
  0
TABLE
  2
LAYER
 70
    15
  0
LAYER
  2
0
 70
     0
 62
     7
  6
CONTINUOUS
  0
LAYER
  2
DEFPOINTS
 70
     0
 62
     7
  6
CONTINUOUS
  0
LAYER
  2
本體外線
 70
     0
 62
     2
  6
CONTINUOUS
  0
LAYER
  2
DIM
 70
     0
 62
     3
  6
CONTINUOUS
  0
LAYER
  2
圖框線
 70
     0
 62
     9
  6
CONTINUOUS
  0
LAYER
  2
剖面線
 70
     0
 62
     5
  6
CONTINUOUS
  0
LAYER
  2
中心線
 70
     0
 62
     1
  6
CENTER
  0
LAYER
  2
本體內線
 70
     0
 62
     4
  6
HIDDENX2
  0
LAYER
  2
1
 70
     0
 62
     7
  6
CONTINUOUS
  0
LAYER
  2
標註線
 70
     0
 62
     6
  6
CONTINUOUS
  0
LAYER
  2
CENTER
 70
     0
 62
     1
  6
CENTERX2
  0
LAYER
  2
MARK
 70
     0
 62
     6
  6
CONTINUOUS
  0
LAYER
  2
CONTOUR
 70
     0
 62
     2
  6
CONTINUOUS
  0
LAYER
  2
BOWEL
 70
     0
 62
     4
  6
HIDDEN2
  0
LAYER
  2
FRAME
 70
     0
 62
     9
  6
CONTINUOUS
  0
ENDTAB
  0
TABLE
  2
STYLE
 70
    10
  0
STYLE
  2
STANDARD
 70
     0
 40
0.0
 41
1.0
 50
0.0
 71
     0
 42
6.0
  3
txt.shx
  4
bigfont.shx
  0
STYLE
  2

 70
     1
 40
0.0
 41
1.0
 50
0.0
 71
     0
 42
6.0
  3
ltypeshp.shx
  4

  0
STYLE
  2
TXT
 70
     0
 40
0.0
 41
1.0
 50
0.0
 71
     0
 42
4.0
  3
txt.shx
  4
bigfont.shx
  0
STYLE
  2
JL
 70
     0
 40
10.0
 41
0.5
 50
0.0
 71
     0
 42
5.0
  3
MS Mincho.ttf
  4

  0
STYLE
  2
A
 70
     0
 40
1.0
 41
1.0
 50
0.0
 71
     0
 42
2.5
  3
MS Mincho.ttf
  4

  0
STYLE
  2

 70
     1
 40
0.0
 41
1.0
 50
0.0
 71
     0
 42
6.0
  3
genltshp.shx
  4

  0
STYLE
  2
ACANSTS
 70
     0
 40
1.0
 41
1.0
 50
0.0
 71
     0
 42
6.0
  3
romans.shx
  4
chineset.shx
  0
STYLE
  2
ACANSGDT
 70
     0
 40
0.0
 41
1.0
 50
0.0
 71
     0
 42
6.0
  3
amgdt.shx
  4

  0
STYLE
  2
JP
 70
     0
 40
1.0
 41
1.5
 50
0.0
 71
     0
 42
50.0
  3
txt.shx
  4
bigfont.shx
  0
STYLE
  2
TW
 70
     0
 40
0.0
 41
1.0
 50
0.0
 71
     0
 42
78.94484843234464
  3
txt.shx
  4
chineset.shx
  0
ENDTAB
  0
TABLE
  2
VIEW
 70
     0
  0
ENDTAB
  0
TABLE
  2
UCS
 70
     0
  0
ENDTAB
  0
ENDSEC
  0
SECTION
  2
BLOCKS
  0
BLOCK
  8
0
  2
A$C3C1D206B
 70
     0
 10
0.0
 20
0.0
 30
0.0
  0
TEXT
  5
1570
  8
1
  6
CONTINUOUS
 10
0.0000001670323395
 20
4.533333177874169
 30
0.0
 40
2.0
  1
P T
 50
270.0
  0
ENDBLK
  8
0
  0
BLOCK
  8
0
  2
A$C25EA59D9
 70
     0
 10
0.0
 20
0.0
 30
0.0
  0
TEXT
  5
1919
  8
0
  6
CONTINUOUS
 10
0.4468324226199911
 20
1.255555006238023
 30
0.0
 40
5.185405744200001
  1
N I K K I
 41
0.5
  7
JL
  0
ENDBLK
  8
0
  0
BLOCK
  8
0
  2
_DOTSMALL
 70
     0
 10
0.0
 20
0.0
 30
0.0
  0
POLYLINE
  5
1C26
  8
0
  6
BYBLOCK
 62
     0
 66
     1
 10
0.0
 20
0.0
 30
0.0
 70
     1
 40
0.5
 41
0.5
  0
VERTEX
  5
56B7
  8
0
  6
BYBLOCK
 62
     0
 10
-0.0625
 20
0.0
 30
0.0
 42
1.0
  0
VERTEX
  5
56B8
  8
0
  6
BYBLOCK
 62
     0
 10
0.0625
 20
0.0
 30
0.0
 42
1.0
  0
SEQEND
  5
56C5
  8
0
  6
BYBLOCK
 62
     0
  0
ENDBLK
  8
0
  0
BLOCK
  8
0
  2
_OPEN30
 70
     0
 10
0.0
 20
0.0
 30
0.0
  0
LINE
  5
1E70
  8
0
 62
     0
 10
-1.0
 20
0.26794919
 30
0.0
 11
0.0
 21
0.0
 31
0.0
  0
LINE
  5
1E71
  8
0
 62
     0
 10
0.0
 20
0.0
 30
0.0
 11
-1.0
 21
-0.26794919
 31
0.0
  0
LINE
  5
1E72
  8
0
 62
     0
 10
0.0
 20
0.0
 30
0.0
 11
-1.0
 21
0.0
 31
0.0
  0
ENDBLK
  8
0
  0
BLOCK
  8
0
  2
_NONE
 70
     0
 10
0.0
 20
0.0
 30
0.0
  0
ENDBLK
  8
0
  0
BLOCK
  8
0
  2
*D6
 70
     1
 10
0.0
 20
0.0
 30
0.0
  0
LINE
  5
55AC
  8
標註線
 10
176.3169036477785
 20
60.33765178308155
 30
0.0
 11
173.2545146271687
 21
60.33765178308156
 31
0.0
  0
LINE
  5
55AD
  8
標註線
 10
176.3169036477782
 20
54.33765178308156
 30
0.0
 11
173.2545146271687
 21
54.33765178308157
 31
0.0
  0
LINE
  5
55AE
  8
標註線
 10
173.6745146271687
 20
59.08765178308156
 30
0.0
 11
173.6745146271687
 21
55.58765178308157
 31
0.0
  0
INSERT
  5
55AF
  8
標註線
  2
_OPEN30
 10
173.6745146271687
 20
60.33765178308156
 30
0.0
 41
1.25
 42
1.25
 43
1.25
 50
90.0
  0
INSERT
  5
55B0
  8
標註線
  2
_OPEN30
 10
173.6745146271687
 20
54.33765178308157
 30
0.0
 41
1.25
 42
1.25
 43
1.25
 50
270.0
  0
TEXT
  5
55B1
  8
標註線
  6
CONTINUOUS
 62
     3
 10
173.2545146271687
 20
56.29598511641493
 30
0.0
 40
1.25
  1
\U+22056
 50
90.0
  0
POINT
  5
55B2
  8
DEFPOINTS
 62
     0
 10
176.7369036477785
 20
60.33765178308155
 30
0.0
  0
POINT
  5
55B3
  8
DEFPOINTS
 62
     0
 10
176.7369036477782
 20
54.33765178308156
 30
0.0
  0
POINT
  5
55B4
  8
DEFPOINTS
 62
     0
 10
173.6745146271687
 20
54.33765178308157
 30
0.0
  0
ENDBLK
  8
0
  0
BLOCK
  8
0
  2
*D8
 70
     1
 10
0.0
 20
0.0
 30
0.0
  0
LINE
  5
55B5
  8
標註線
 10
205.1569036477786
 20
55.33694958795929
 30
0.0
 11
209.490490034295
 21
55.33694958795928
 31
0.0
  0
LINE
  5
55B6
  8
標註線
 10
205.1569036477786
 20
59.33694958795929
 30
0.0
 11
209.490490034295
 21
59.33694958795928
 31
0.0
  0
LINE
  5
55B7
  8
標註線
 10
209.070490034295
 20
56.58694958795928
 30
0.0
 11
209.070490034295
 21
58.08694958795928
 31
0.0
  0
INSERT
  5
55B8
  8
標註線
  2
_OPEN30
 10
209.070490034295
 20
55.33694958795928
 30
0.0
 41
1.25
 42
1.25
 43
1.25
 50
270.0
  0
INSERT
  5
55B9
  8
標註線
  2
_OPEN30
 10
209.070490034295
 20
59.33694958795928
 30
0.0
 41
1.25
 42
1.25
 43
1.25
 50
90.0
  0
TEXT
  5
55BA
  8
標註線
  6
CONTINUOUS
 62
     3
 10
208.650490034295
 20
56.29528292129265
 30
0.0
 40
1.25
  1
\U+22054
 50
90.0
  0
POINT
  5
55BB
  8
DEFPOINTS
 62
     0
 10
204.7369036477786
 20
55.33694958795929
 30
0.0
  0
POINT
  5
55BC
  8
DEFPOINTS
 62
     0
 10
204.7369036477786
 20
59.33694958795929
 30
0.0
  0
POINT
  5
55BD
  8
DEFPOINTS
 62
     0
 10
209.070490034295
 20
59.33694958795928
 30
0.0
  0
ENDBLK
  8
0
  0
BLOCK
  8
0
  2
*D9
 70
     1
 10
0.0
 20
0.0
 30
0.0
  0
LINE
  5
55BE
  8
標註線
 10
204.9569036477786
 20
60.33694958795918
 30
0.0
 11
212.7731062282206
 21
60.33694958795917
 31
0.0
  0
LINE
  5
55BF
  8
標註線
 10
204.9569036477786
 20
54.33694958795933
 30
0.0
 11
212.7731062282206
 21
54.33694958795932
 31
0.0
  0
LINE
  5
55C0
  8
標註線
 10
212.3531062282206
 20
59.08694958795917
 30
0.0
 11
212.3531062282206
 21
55.58694958795932
 31
0.0
  0
INSERT
  5
55C1
  8
標註線
  2
_OPEN30
 10
212.3531062282206
 20
60.33694958795917
 30
0.0
 41
1.25
 42
1.25
 43
1.25
 50
90.0
  0
INSERT
  5
55C2
  8
標註線
  2
_OPEN30
 10
212.3531062282206
 20
54.33694958795932
 30
0.0
 41
1.25
 42
1.25
 43
1.25
 50
270.0
  0
TEXT
  5
55C3
  8
標註線
  6
CONTINUOUS
 62
     3
 10
211.9331062282206
 20
56.29528292129262
 30
0.0
 40
1.25
  1
\U+22056
 50
90.0
  0
POINT
  5
55C4
  8
DEFPOINTS
 62
     0
 10
204.5369036477786
 20
60.33694958795918
 30
0.0
  0
POINT
  5
55C5
  8
DEFPOINTS
 62
     0
 10
204.5369036477786
 20
54.33694958795933
 30
0.0
  0
POINT
  5
55C6
  8
DEFPOINTS
 62
     0
 10
212.3531062282206
 20
54.33694958795932
 30
0.0
  0
ENDBLK
  8
0
  0
BLOCK
  8
0
  2
GENAXEH
 70
     0
 10
0.0
 20
0.0
 30
0.0
  0
LINE
  5
51F8
  8
0
 10
-1.0
 20
0.0
 30
0.0
 11
1.0
 21
0.0
 31
0.0
  0
ENDBLK
  8
0
  0
BLOCK
  8
0
  2
*D34
 70
     1
 10
0.0
 20
0.0
 30
0.0
  0
LINE
  5
55C7
  8
MARK
 10
186.2369036477781
 20
67.57190416418284
 30
0.0
 11
186.2369036477781
 21
70.56063065391173
 31
0.0
  0
LINE
  5
55C8
  8
MARK
 10
176.2369036477786
 20
61.77572897820373
 30
0.0
 11
176.2369036477786
 21
70.56063065391173
 31
0.0
  0
LINE
  5
55C9
  8
MARK
 10
184.9869036477781
 20
70.14063065391173
 30
0.0
 11
177.4869036477786
 21
70.14063065391173
 31
0.0
  0
INSERT
  5
55CA
  8
MARK
  2
_OPEN30
 10
186.2369036477781
 20
70.14063065391173
 30
0.0
 41
1.25
 42
1.25
 43
1.25
  0
INSERT
  5
55CB
  8
MARK
  2
_OPEN30
 10
176.2369036477786
 20
70.14063065391173
 30
0.0
 41
1.25
 42
1.25
 43
1.25
 50
180.0
  0
TEXT
  5
55CC
  8
MARK
  6
CONTINUOUS
 62
     3
 10
180.5077369811117
 20
70.56063065391173
 30
0.0
 40
1.25
  1
10
  0
POINT
  5
55CD
  8
DEFPOINTS
 62
     0
 10
186.2369036477781
 20
67.15190416418284
 30
0.0
  0
POINT
  5
55CE
  8
DEFPOINTS
 62
     0
 10
176.2369036477786
 20
61.35572897820373
 30
0.0
  0
POINT
  5
55CF
  8
DEFPOINTS
 62
     0
 10
176.2369036477786
 20
70.14063065391173
 30
0.0
  0
ENDBLK
  8
0
  0
BLOCK
  8
0
  2
*D35
 70
     1
 10
0.0
 20
0.0
 30
0.0
  0
LINE
  5
55D0
  8
MARK
 10
186.2369036477781
 20
67.57190416418284
 30
0.0
 11
186.2369036477781
 21
70.56083229982083
 31
0.0
  0
LINE
  5
55D1
  8
MARK
 10
204.7369036477787
 20
60.55694958795902
 30
0.0
 11
204.7369036477787
 21
70.56083229982083
 31
0.0
  0
LINE
  5
55D2
  8
MARK
 10
187.4869036477781
 20
70.14083229982083
 30
0.0
 11
203.4869036477787
 21
70.14083229982083
 31
0.0
  0
INSERT
  5
55D3
  8
MARK
  2
_OPEN30
 10
186.2369036477781
 20
70.14083229982083
 30
0.0
 41
1.25
 42
1.25
 43
1.25
 50
180.0
  0
INSERT
  5
55D4
  8
MARK
  2
_OPEN30
 10
204.7369036477787
 20
70.14083229982083
 30
0.0
 41
1.25
 42
1.25
 43
1.25
  0
TEXT
  5
55D5
  8
MARK
  6
CONTINUOUS
 62
     3
 10
193.8202369811118
 20
70.56083229982083
 30
0.0
 40
1.25
  1
18.5
  0
POINT
  5
55D6
  8
DEFPOINTS
 62
     0
 10
186.2369036477781
 20
67.15190416418284
 30
0.0
  0
POINT
  5
55D7
  8
DEFPOINTS
 62
     0
 10
204.7369036477787
 20
60.13694958795902
 30
0.0
  0
POINT
  5
55D8
  8
DEFPOINTS
 62
     0
 10
204.7369036477787
 20
70.14083229982083
 30
0.0
  0
ENDBLK
  8
0
  0
BLOCK
  8
0
  2
*D36
 70
     1
 10
0.0
 20
0.0
 30
0.0
  0
LINE
  5
55D9
  8
MARK
 10
176.2369036477786
 20
61.77572897820373
 30
0.0
 11
176.2369036477786
 21
75.68088746484567
 31
0.0
  0
LINE
  5
55DA
  8
MARK
 10
204.7369036477787
 20
60.55694958795903
 30
0.0
 11
204.7369036477787
 21
75.68088746484567
 31
0.0
  0
LINE
  5
55DB
  8
MARK
 10
177.4869036477786
 20
75.26088746484567
 30
0.0
 11
203.4869036477787
 21
75.26088746484567
 31
0.0
  0
INSERT
  5
55DC
  8
MARK
  2
_OPEN30
 10
176.2369036477786
 20
75.26088746484567
 30
0.0
 41
1.25
 42
1.25
 43
1.25
 50
180.0
  0
INSERT
  5
55DD
  8
MARK
  2
_OPEN30
 10
204.7369036477787
 20
75.26088746484567
 30
0.0
 41
1.25
 42
1.25
 43
1.25
  0
TEXT
  5
55DE
  8
MARK
  6
CONTINUOUS
 62
     3
 10
188.6119036477787
 20
75.68088746484567
 30
0.0
 40
1.25
  1
28.5
  0
POINT
  5
55DF
  8
DEFPOINTS
 62
     0
 10
176.2369036477786
 20
61.35572897820373
 30
0.0
  0
POINT
  5
55E0
  8
DEFPOINTS
 62
     0
 10
204.7369036477787
 20
60.13694958795903
 30
0.0
  0
POINT
  5
55E1
  8
DEFPOINTS
 62
     0
 10
204.7369036477787
 20
75.26088746484567
 30
0.0
  0
ENDBLK
  8
0
  0
BLOCK
  8
0
  2
*D37
 70
     1
 10
0.0
 20
0.0
 30
0.0
  0
LINE
  5
5609
  8
MARK
 10
206.1569036477786
 20
57.33694958795935
 30
0.0
 11
206.775490034295
 21
57.33694958795935
 31
0.0
  0
ARC
  5
560A
  8
MARK
 10
193.4869036477793
 20
57.33694958795935
 30
0.0
 40
23.92441396622782
 50
327.9939238330141
 51
357.0060761669859
  0
INSERT
  5
560B
  8
MARK
  2
_OPEN30
 10
213.0846362566309
 20
43.61446948342319
 30
0.0
 41
1.25
 42
1.25
 43
1.25
 50
236.496961916507
  0
INSERT
  5
560C
  8
MARK
  2
_OPEN30
 10
217.4113176140071
 20
57.33694958795932
 30
0.0
 41
1.25
 42
1.25
 43
1.25
 50
88.50303808349294
  0
TEXT
  5
560D
  8
MARK
  6
CONTINUOUS
 62
     3
 10
215.4649323738303
 20
48.87819877452421
 30
0.0
 40
1.25
  1
35°
 50
72.49999999999999
  0
POINT
  5
560E
  8
DEFPOINTS
 62
     0
 10
215.454685899241
 20
47.86097330159188
 30
0.0
  0
POINT
  5
560F
  8
DEFPOINTS
 62
     0
 10
205.7369036477787
 20
57.33694958795935
 30
0.0
  0
POINT
  5
5610
  8
DEFPOINTS
 62
     0
 10
193.4869036477791
 20
57.33694958795946
 30
0.0
  0
POINT
  5
5611
  8
DEFPOINTS
 62
     0
 10
214.7047778314009
 20
42.48003413980231
 30
0.0
  0
POINT
  5
5612
  8
DEFPOINTS
 62
     0
 10
175.2369036477782
 20
57.33694958795934
 30
0.0
  0
LINE
  5
5613
  8
MARK
 10
212.9781062282206
 20
57.33694958795933
 30
0.0
 11
217.8313176140071
 21
57.33694958795932
 31
0.0
  0
ENDBLK
  8
0
  0
BLOCK
  8
0
  2
*D38
 70
     1
 10
0.0
 20
0.0
 30
0.0
  0
LINE
  5
55FE
  8
MARK
 10
206.1569036477786
 20
57.33694958795932
 30
0.0
 11
206.775490034295
 21
57.33694958795932
 31
0.0
  0
ARC
  5
55FF
  8
MARK
 10
193.4869036477792
 20
57.33694958795933
 30
0.0
 40
23.92441396622773
 50
2.993923833014047
 51
32.00607616698591
  0
INSERT
  5
5600
  8
MARK
  2
_OPEN30
 10
217.4113176140069
 20
57.33694958795932
 30
0.0
 41
1.25
 42
1.25
 43
1.25
 50
271.4969619165071
  0
INSERT
  5
5601
  8
MARK
  2
_OPEN30
 10
213.0846362566307
 20
71.05942969249541
 30
0.0
 41
1.25
 42
1.25
 43
1.25
 50
123.5030380834929
  0
POINT
  5
5602
  8
DEFPOINTS
 62
     0
 10
216.9170540968411
 20
62.1748864996766
 30
0.0
  0
POINT
  5
5603
  8
DEFPOINTS
 62
     0
 10
205.7369036477786
 20
57.33694958795932
 30
0.0
  0
POINT
  5
5604
  8
DEFPOINTS
 62
     0
 10
193.4869036477791
 20
57.33694958795922
 30
0.0
  0
POINT
  5
5605
  8
DEFPOINTS
 62
     0
 10
214.7047778314008
 20
72.19386503611636
 30
0.0
  0
POINT
  5
5606
  8
DEFPOINTS
 62
     0
 10
175.2369036477781
 20
57.33694958795933
 30
0.0
  0
LINE
  5
5607
  8
MARK
 10
212.9781062282206
 20
57.33694958795932
 30
0.0
 11
217.8313176140069
 21
57.33694958795932
 31
0.0
  0
ENDBLK
  8
0
  0
BLOCK
  8
0
  2
*D40
 70
     1
 10
0.0
 20
0.0
 30
0.0
  0
LINE
  5
55F5
  8
MARK
 10
232.4377069508221
 20
62.66442687607109
 30
0.0
 11
232.4377069508221
 21
70.57994184441911
 31
0.0
  0
LINE
  5
55F6
  8
MARK
 10
249.4377069508221
 20
62.66442687607109
 30
0.0
 11
249.4377069508221
 21
70.57994184441911
 31
0.0
  0
LINE
  5
55F7
  8
MARK
 10
233.6877069508221
 20
70.15994184441911
 30
0.0
 11
248.1877069508221
 21
70.15994184441911
 31
0.0
  0
INSERT
  5
55F8
  8
MARK
  2
_OPEN30
 10
232.4377069508221
 20
70.15994184441911
 30
0.0
 41
1.25
 42
1.25
 43
1.25
 50
180.0
  0
INSERT
  5
55F9
  8
MARK
  2
_OPEN30
 10
249.4377069508221
 20
70.15994184441911
 30
0.0
 41
1.25
 42
1.25
 43
1.25
  0
TEXT
  5
55FA
  8
MARK
  6
CONTINUOUS
 62
     3
 10
240.1043736174887
 20
70.57994184441911
 30
0.0
 40
1.25
  1
17
  0
POINT
  5
55FB
  8
DEFPOINTS
 62
     0
 10
232.4377069508221
 20
62.24442687607109
 30
0.0
  0
POINT
  5
55FC
  8
DEFPOINTS
 62
     0
 10
249.4377069508221
 20
62.24442687607109
 30
0.0
  0
POINT
  5
55FD
  8
DEFPOINTS
 62
     0
 10
249.4377069508221
 20
70.15994184441911
 30
0.0
  0
ENDBLK
  8
0
  0
BLOCK
  8
0
  2
*X41
 70
     1
 10
0.0
 20
0.0
 30
0.0
  0
TEXT
  5
56A8
  8
0
  6
CONTINUOUS
 10
265.904248913425
 20
6.074149562845264
 30
0.0
 40
2.5
  1
NNPT
 41
0.5
  7
JP
  0
TEXT
  5
56A9
  8
0
  6
CONTINUOUS
 10
270.904248913425
 20
6.074149562845264
 30
0.0
 40
2.5
  1
1/8-20
 41
0.5
  0
ENDBLK
  8
0
  0
BLOCK
  8
0
  2
*X42
 70
     1
 10
0.0
 20
0.0
 30
0.0
  0
TEXT
  5
56AB
  8
0
  6
CONTINUOUS
 10
251.4327141309889
 20
1.185169465835315
 30
0.0
 40
2.5
  1
NP800
 41
0.5
  7
JP
  0
TEXT
  5
56AC
  8
0
  6
CONTINUOUS
 10
257.2660474643222
 20
1.185169465835315
 30
0.0
 40
2.5
  1
61
 41
0.5
  0
ENDBLK
  8
0
  0
BLOCK
  8
0
  2
*X43
 70
     1
 10
0.0
 20
0.0
 30
0.0
  0
TEXT
  5
56AE
  8
DIM
  6
CONTINUOUS
 10
142.1685157690492
 20
12.31718594295165
 30
0.0
 40
2.5
  1
備考
  0
TEXT
  5
56AF
  8
DIM
  6
CONTINUOUS
 10
142.1685157690492
 20
8.900519276284985
 30
0.0
 40
1.75
  1
表面\U+51E6理:\U+9ED2染
  0
ENDBLK
  8
0
  0
BLOCK
  8
0
  2
*X44
 70
     1
 10
0.0
 20
0.0
 30
0.0
  0
INSERT
  5
56B1
  8
標註線
  2
_OPEN30
 10
180.7860497689429
 20
52.5964137716727
 30
0.0
 41
1.25
 42
1.25
 43
1.25
 50
45.0
  0
LINE
  5
56B2
  8
標註線
 10
179.9021662924597
 20
51.71253029518952
 30
0.0
 11
175.7116310090061
 21
47.52199501173584
 31
0.0
  0
LINE
  5
56B3
  8
標註線
 10
175.7116310090061
 20
47.52199501173584
 30
0.0
 11
168.6825377335557
 21
47.52199501173584
 31
0.0
  0
ENDBLK
  8
0
  0
BLOCK
  8
0
  2
*X45
 70
     1
 10
0.0
 20
0.0
 30
0.0
  0
TEXT
  5
56B5
  8
0
  6
CONTINUOUS
 10
211.0532140658705
 20
6.074149562845264
 30
0.0
 40
2.5
  1
李
 41
0.5
  7
JP
  0
TEXT
  5
56B6
  8
0
  6
CONTINUOUS
 10
212.0948807325371
 20
6.074149562845264
 30
0.0
 40
2.5
  1
 \U+56FD 慶
 41
0.5
  0
ENDBLK
  8
0
  0
ENDSEC
  0
SECTION
  2
ENTITIES
  0
POLYLINE
  5
4303
  8
本體外線
 66
     1
 10
0.0
 20
0.0
 30
0.0
 70
     1
  0
VERTEX
  5
569D
  8
本體外線
 10
232.4377069508221
 20
52.42947229984736
 30
0.0
  0
VERTEX
  5
569E
  8
本體外線
 10
240.9377069508221
 20
47.52199501173561
 30
0.0
  0
VERTEX
  5
569F
  8
本體外線
 10
249.4377069508221
 20
52.42947229984736
 30
0.0
  0
VERTEX
  5
56A0
  8
本體外線
 10
249.4377069508221
 20
62.24442687607109
 30
0.0
  0
VERTEX
  5
56A1
  8
本體外線
 10
240.9377069508221
 20
67.15190416418284
 30
0.0
  0
VERTEX
  5
56A2
  8
本體外線
 10
232.4377069508221
 20
62.24442687607109
 30
0.0
  0
SEQEND
  5
56C3
  8
本體外線
  0
LINE
  5
4304
  8
中心線
 10
240.9377069508221
 20
46.36729447335642
 30
0.0
 11
240.9377069508221
 21
68.30660470256203
 31
0.0
  0
LINE
  5
4305
  8
中心線
 10
250.4377069508221
 20
57.33694958795923
 30
0.0
 11
231.4377069508221
 21
57.33694958795923
 31
0.0
  0
CIRCLE
  5
4306
  8
本體外線
 10
240.9377069508221
 20
57.33694958795923
 30
0.0
 40
3.000000000000455
  0
CIRCLE
  5
4307
  8
本體外線
 10
240.9377069508221
 20
57.33694958795923
 30
0.0
 40
2.000000000000455
  0
CIRCLE
  5
4308
  8
本體外線
 10
240.9377069508221
 20
57.33694958795923
 30
0.0
 40
3.644516428828979
  0
CIRCLE
  5
4309
  8
本體外線
 10
240.9377069508221
 20
57.33694958795923
 30
0.0
 40
5.455272678794472
  0
CIRCLE
  5
430A
  8
本體外線
 10
240.9377069508221
 20
57.33694958795923
 30
0.0
 40
7.500000000000227
  0
CIRCLE
  5
430B
  8
本體外線
 10
240.9377069508221
 20
57.33694958795923
 30
0.0
 40
8.000000000000227
  0
LINE
  5
430D
  8
中心線
 10
205.7369036477786
 20
57.33694958795934
 30
0.0
 11
175.2369036477781
 21
57.33694958795934
 31
0.0
  0
LINE
  5
430E
  8
本體外線
 10
196.7369036477777
 20
64.83694958795942
 30
0.0
 11
196.7369036477786
 21
49.83694958795957
 31
0.0
  0
LINE
  5
430F
  8
本體外線
 10
186.2369036477791
 20
67.15190416418284
 30
0.0
 11
186.2369036477781
 21
47.52199501173584
 31
0.0
  0
LINE
  5
4310
  8
本體外線
 10
193.7369036477786
 20
47.52199501173584
 30
0.0
 11
186.2369036477781
 21
47.52199501173584
 31
0.0
  0
LINE
  5
4311
  8
本體外線
 10
193.7369036477781
 20
47.52199501173561
 30
0.0
 11
194.2369036477781
 21
49.33694958795934
 31
0.0
  0
LINE
  5
4312
  8
本體外線
 10
194.2369036477781
 20
49.33694958795934
 30
0.0
 11
196.7369036477781
 21
49.83694958795934
 31
0.0
  0
LINE
  5
4313
  8
本體外線
 10
194.2369036477781
 20
65.33694958795934
 30
0.0
 11
194.2369036477781
 21
49.33694958795934
 31
0.0
  0
LINE
  5
4314
  8
本體外線
 10
193.0131644796362
 20
52.42947229984748
 30
0.0
 11
186.2369036477781
 21
52.42947229984759
 31
0.0
  0
ARC
  5
4315
  8
本體外線
 10
176.7369036477786
 20
57.33694958795945
 30
0.0
 40
16.99999999999989
 50
343.2213451190416
 51
16.7786548809604
  0
ARC
  5
4316
  8
本體外線
 10
189.2155014597248
 20
49.97573365579149
 30
0.0
 40
4.521402188053487
 50
327.1327677635045
 51
32.8672322364955
  0
LINE
  5
431F
  8
本體外線
 10
176.2369036477786
 20
61.35572897820373
 30
0.0
 11
176.2369036477777
 21
53.31957458795944
 31
0.0
  0
LINE
  5
434F
  8
本體外線
 10
204.5369036477786
 20
54.33694958796096
 30
0.0
 11
198.6869036477784
 21
54.33694958795911
 31
0.0
  0
LINE
  5
4351
  8
本體外線
 10
198.6869036477784
 20
53.69243315913047
 30
0.0
 11
198.6869036477784
 21
60.98146601678852
 31
0.0
  0
ARC
  5
4352
  8
本體外線
 10
193.4869036477791
 20
57.33694958795945
 30
0.0
 40
6.35
 50
300.784536581046
 51
324.9745948331325
  0
LINE
  5
4364
  8
本體外線
 10
184.7369036477786
 20
52.47294958795908
 30
0.0
 11
176.8351958901072
 21
52.71987795538632
 31
0.0
  0
LINE
  5
4365
  8
本體外線
 62
     4
 10
183.672996463
 20
53.0871966874837
 30
0.0
 11
176.2369036477777
 21
53.31957458795944
 31
0.0
  0
LINE
  5
4366
  8
本體外線
 10
176.2369036477781
 20
53.31817019771518
 30
0.0
 11
176.8351958901068
 21
52.71987795538655
 31
0.0
  0
LINE
  5
4367
  8
本體外線
 10
184.7369036477786
 20
52.33694958796025
 30
0.0
 11
184.7369036477786
 21
62.20094958795961
 31
0.0
  0
LINE
  5
4368
  8
本體外線
 10
184.7369036477786
 20
52.33694958796025
 30
0.0
 11
186.2369036477786
 21
52.33694958796059
 31
0.0
  0
LINE
  5
4369
  8
本體外線
 62
     4
 10
183.672996463
 20
53.08719668748347
 30
0.0
 11
184.7369036477786
 21
52.47294958795908
 31
0.0
  0
LINE
  5
436A
  8
本體外線
 10
176.8351958901072
 20
52.71987795538632
 30
0.0
 11
176.8351958901068
 21
61.95402122053235
 31
0.0
  0
LINE
  5
436B
  8
本體外線
 10
183.672996463
 20
52.50619668748345
 30
0.0
 11
183.672996463
 21
62.16770248843527
 31
0.0
  0
LINE
  5
444A
  8
本體外線
 10
193.7369036477786
 20
67.15190416418284
 30
0.0
 11
186.2369036477781
 21
67.15190416418284
 31
0.0
  0
LINE
  5
444B
  8
本體外線
 10
193.7369036477781
 20
67.15190416418307
 30
0.0
 11
194.2369036477781
 21
65.33694958795934
 31
0.0
  0
LINE
  5
444C
  8
本體外線
 10
194.2369036477781
 20
65.33694958795934
 30
0.0
 11
196.7369036477781
 21
64.83694958795934
 31
0.0
  0
ARC
  5
444D
  8
本體外線
 10
189.2155014597248
 20
64.69816552012719
 30
0.0
 40
4.521402188053487
 50
327.1327677635043
 51
32.86723223649566
  0
LINE
  5
444E
  8
本體外線
 10
204.5369036477786
 20
60.33694958795877
 30
0.0
 11
198.6869036477784
 21
60.33694958795957
 31
0.0
  0
ARC
  5
444F
  8
本體外線
 10
193.4869036477791
 20
57.33694958795923
 30
0.0
 40
6.35
 50
35.02540516686753
 51
59.21546341895253
  0
LINE
  5
4450
  8
本體外線
 10
184.7369036477786
 20
62.2009495879596
 30
0.0
 11
176.8351958901072
 21
61.95402122053235
 31
0.0
  0
LINE
  5
4451
  8
本體外線
 10
193.0131644796362
 20
62.2444268760712
 30
0.0
 11
186.2369036477781
 21
62.24442687607109
 31
0.0
  0
LINE
  5
4452
  8
本體外線
 62
     4
 10
183.672996463
 20
61.45070248843616
 30
0.0
 11
176.2369036477777
 21
61.21832458796042
 31
0.0
  0
LINE
  5
4453
  8
本體外線
 10
184.7369036477786
 20
62.20094958795961
 30
0.0
 11
186.2369036477786
 21
62.20094958795927
 31
0.0
  0
LINE
  5
4454
  8
本體外線
 62
     4
 10
183.672996463
 20
61.45070248843639
 30
0.0
 11
184.7369036477786
 21
62.06494958796078
 31
0.0
  0
LINE
  5
4455
  8
本體外線
 10
176.8351958901068
 20
61.95402122053235
 30
0.0
 11
176.2369036477786
 21
61.35572897820373
 31
0.0
  0
LINE
  5
48B2
  8
本體內線
 10
198.6869036477784
 20
59.3369495879595
 30
0.0
 11
204.7369036477786
 21
59.3369495879595
 31
0.0
  0
LINE
  5
48B3
  8
本體內線
 10
198.6869036477784
 20
55.3369495879595
 30
0.0
 11
204.7369036477786
 21
55.3369495879595
 31
0.0
  0
LINE
  5
48B5
  8
本體內線
 10
176.7369036477785
 20
60.33765178308155
 30
0.0
 11
186.2369036477787
 21
60.33765178308113
 31
0.0
  0
LINE
  5
48B6
  8
本體內線
 10
176.7369036477778
 20
54.33765178308156
 30
0.0
 11
186.2369036477785
 21
54.33765178308112
 31
0.0
  0
LINE
  5
48B7
  8
本體內線
 10
176.7369036477785
 20
60.33765178308154
 30
0.0
 11
176.2369036477785
 21
60.83765178308157
 31
0.0
  0
LINE
  5
48B8
  8
本體內線
 10
176.7369036477778
 20
54.33765178308156
 30
0.0
 11
176.2369036477778
 21
53.83765178308158
 31
0.0
  0
LINE
  5
48B9
  8
本體內線
 10
176.7369036477785
 20
60.33765178308154
 30
0.0
 11
176.7369036477782
 21
54.33765178308155
 31
0.0
  0
DIMENSION
  5
4F6B
  8
標註線
  2
*D6
 10
173.6745146271687
 20
54.33765178308157
 30
0.0
 11
172.6295146271687
 21
57.33765178308159
 31
0.0
 70
    32
  1
%%C6
 13
176.7369036477785
 23
60.33765178308155
 33
0.0
 14
176.7369036477782
 24
54.33765178308156
 34
0.0
 50
90.0
  0
LINE
  5
4FA5
  8
本體外線
 10
204.7369036477786
 20
54.5369495879594
 30
0.0
 11
204.7369036477786
 21
60.13694958795914
 31
0.0
  0
LINE
  5
4FAA
  8
本體外線
 10
204.5369036477786
 20
54.33694958795933
 30
0.0
 11
204.7369036477786
 21
54.5369495879594
 31
0.0
  0
LINE
  5
4FAB
  8
本體外線
 10
204.7369036477786
 20
60.13694958795914
 30
0.0
 11
204.5369036477786
 21
60.33694958795918
 31
0.0
  0
LINE
  5
4FAC
  8
本體外線
 10
204.5369036477786
 20
60.33694958795918
 30
0.0
 11
204.5369036477786
 21
54.33694958795933
 31
0.0
  0
DIMENSION
  5
4FEF
  8
標註線
  2
*D8
 10
209.070490034295
 20
59.33694958795928
 30
0.0
 11
208.025490034295
 21
57.33694958795932
 31
0.0
 70
    32
  1
%%C4
 13
204.7369036477786
 23
55.33694958795929
 33
0.0
 14
204.7369036477786
 24
59.33694958795929
 34
0.0
 50
90.0
  0
DIMENSION
  5
4FFC
  8
標註線
  2
*D9
 10
212.3531062282206
 20
54.33694958795932
 30
0.0
 11
211.3081062282206
 21
57.33694958795928
 31
0.0
 70
    32
  1
%%C6
 13
204.5369036477786
 23
60.33694958795918
 33
0.0
 14
204.5369036477786
 24
54.33694958795933
 34
0.0
 50
90.0
  0
TEXT
  5
503E
  8
標註線
  6
CONTINUOUS
 62
     3
 10
168.6712115056947
 20
48.64353992957631
 30
0.0
 40
1.25
  1
PT 1/8"
  0
POLYLINE
  5
5310
  8
FRAME
 66
     1
 10
0.0
 20
0.0
 30
0.0
 70
     1
  0
VERTEX
  5
56A3
  8
FRAME
 10
279.9999999574728
 20
-0.0000001008491495
 30
0.0
  0
VERTEX
  5
56A4
  8
FRAME
 10
279.9999999574728
 20
94.99999989915085
 30
0.0
  0
VERTEX
  5
56A5
  8
FRAME
 10
139.9999999574729
 20
94.99999989915085
 30
0.0
  0
VERTEX
  5
56A6
  8
FRAME
 10
139.9999999574729
 20
-0.0000001008491495
 30
0.0
  0
SEQEND
  5
56C4
  8
FRAME
  0
LINE
  5
5311
  8
FRAME
 10
184.999999957473
 20
4.999999899150851
 30
0.0
 11
279.9999999574728
 21
4.999999899150851
 31
0.0
  0
LINE
  5
5312
  8
FRAME
 10
184.999999957473
 20
9.99999989915085
 30
0.0
 11
237.4999999574728
 21
9.99999989915085
 31
0.0
  0
LINE
  5
5313
  8
FRAME
 10
184.999999957473
 20
14.99999989915085
 30
0.0
 11
279.9999999574728
 21
14.99999989915085
 31
0.0
  0
LINE
  5
5314
  8
FRAME
 10
264.9999999574728
 20
-0.0000001008491495
 30
0.0
 11
264.9999999574728
 21
4.999999899150851
 31
0.0
  0
LINE
  5
5315
  8
FRAME
 10
259.9999999574728
 20
4.999999899150851
 30
0.0
 11
259.9999999574728
 21
14.99999989915085
 31
0.0
  0
LINE
  5
5316
  8
FRAME
 10
237.4999999574728
 20
14.99999989915085
 30
0.0
 11
237.4999999574728
 21
-0.0000001008491495
 31
0.0
  0
LINE
  5
5317
  8
FRAME
 10
189.999999957473
 20
14.99999989915085
 30
0.0
 11
189.999999957473
 21
4.999999899150851
 31
0.0
  0
LINE
  5
5318
  8
FRAME
 10
202.499999957473
 20
14.99999989915085
 30
0.0
 11
202.499999957473
 21
4.999999899150851
 31
0.0
  0
LINE
  5
5319
  8
FRAME
 10
207.499999957473
 20
9.99999989915085
 30
0.0
 11
207.499999957473
 21
4.999999899150851
 31
0.0
  0
LINE
  5
531A
  8
FRAME
 10
224.999999957473
 20
14.99999989915085
 30
0.0
 11
224.999999957473
 21
4.999999899150794
 31
0.0
  0
CIRCLE
  5
531B
  8
0
 10
207.7839640365447
 20
12.49999989915085
 30
0.0
 40
1.25
  0
CIRCLE
  5
531C
  8
0
 10
207.7839640365447
 20
12.49999989915085
 30
0.0
 40
0.6249999999999999
  0
LINE
  5
531D
  8
0
 10
207.7839640365447
 20
13.99999989915085
 30
0.0
 11
207.7839640365447
 21
10.99999989915085
 31
0.0
  0
LINE
  5
531E
  8
0
 10
206.2839640365447
 20
12.49999989915085
 30
0.0
 11
209.2839640365447
 21
12.49999989915085
 31
0.0
  0
LINE
  5
531F
  8
0
 10
211.8658883719814
 20
13.12499989915085
 30
0.0
 11
211.8658883719814
 21
11.87499989915085
 31
0.0
  0
LINE
  5
5320
  8
0
 10
214.3658883719814
 20
13.74999989915085
 30
0.0
 11
214.3658883719814
 21
11.24999989915085
 31
0.0
  0
LINE
  5
5321
  8
0
 10
211.8658883719814
 20
11.87499989915085
 30
0.0
 11
214.3658883719814
 21
11.24999989915085
 31
0.0
  0
LINE
  5
5322
  8
0
 10
211.8658883719814
 20
13.12499989915085
 30
0.0
 11
214.3658883719814
 21
13.74999989915085
 31
0.0
  0
LINE
  5
5323
  8
0
 10
211.6158883719814
 20
12.49999989915085
 30
0.0
 11
214.6158883719814
 21
12.49999989915085
 31
0.0
  0
TEXT
  5
5324
  8
0
  6
CONTINUOUS
 10
185.8190917378511
 20
11.07414956284532
 30
0.0
 40
2.5
  1
日 付
 41
0.5
  0
TEXT
  5
5325
  8
0
  6
CONTINUOUS
 10
185.8190917378511
 20
6.074149562845264
 30
0.0
 40
2.5
  1
製 \U+56F3
 41
0.5
  0
TEXT
  5
5326
  8
0
  6
CONTINUOUS
 10
192.7276588792559
 20
0.5788914071627573
 30
0.0
 40
3.5
  1
日機株式\U+4F1A社
 41
1.5
  0
TEXT
  5
5327
  8
0
  6
CONTINUOUS
 10
203.3190917378511
 20
6.074149562845264
 30
0.0
 40
2.5
  1
\U+691C \U+56F3
 41
0.5
  0
TEXT
  5
5328
  8
0
  6
CONTINUOUS
 10
220.8190917378511
 20
11.07414956284532
 30
0.0
 40
2.5
  1
尺 度
 41
0.5
  0
TEXT
  5
5329
  8
0
  6
CONTINUOUS
 10
220.8190917378511
 20
6.074149562845264
 30
0.0
 40
2.5
  1
承 認
 41
0.5
  0
TEXT
  5
532A
  8
0
  6
CONTINUOUS
 10
238.3190917378511
 20
11.07414956284532
 30
0.0
 40
2.5
  1
品 名
 41
0.5
  0
TEXT
  5
532B
  8
0
  6
CONTINUOUS
 10
238.3190917378511
 20
1.185169465835315
 30
0.0
 40
2.5
  1
\U+56F3 面 番 \U+53F7
 41
0.5
  0
LINE
  5
532C
  8
FRAME
 10
219.999999957473
 20
14.99999989915085
 30
0.0
 11
219.999999957473
 21
4.999999899150851
 31
0.0
  0
LINE
  5
532D
  8
FRAME
 10
184.999999957473
 20
14.99999989915085
 30
0.0
 11
184.999999957473
 21
-0.0000001008491495
 31
0.0
  0
TEXT
  5
532E
  8
0
  6
CONTINUOUS
 10
192.2117259392865
 20
11.07414956284532
 30
0.0
 40
2.5
  1
2012.10.01
 41
0.5
  7
TW
  0
TEXT
  5
532F
  8
0
  6
CONTINUOUS
 10
192.2555545144903
 20
6.074149562845264
 30
0.0
 40
2.5
  1
林 彥 旭
 41
0.5
  7
TW
  0
TEXT
  5
5330
  8
0
  6
CONTINUOUS
 10
228.1566088256664
 20
11.07414956284532
 30
0.0
 40
2.5
  1
NOT/S
 41
0.5
  7
TW
  0
TEXT
  5
5331
  8
0
  6
CONTINUOUS
 10
260.8190917378511
 20
11.07414956284532
 30
0.0
 40
2.5
  1
型 番
 41
0.5
  0
TEXT
  5
5332
  8
0
  6
CONTINUOUS
 10
265.8190917378511
 20
1.074149562845321
 30
0.0
 40
2.5
  1
\U+5909 更
 41
0.5
  0
INSERT
  5
5333
  8
0
  2
*X41
 10
0.0
 20
0.0
 30
0.0
  0
INSERT
  5
5334
  8
0
  2
*X42
 10
0.0
 20
0.0
 30
0.0
  0
TEXT
  5
5335
  8
0
  6
CONTINUOUS
 10
245.4110179367726
 20
6.058415091407348
 30
0.0
 40
2.5
  1
PF \U+30CE\U+30BA\U+30EB
 41
0.5
  0
INSERT
  5
5336
  8
DIM
  2
*X43
 10
0.0
 20
0.0
 30
0.0
  0
LINE
  5
5451
  8
本體外線
 10
204.7369036477787
 20
60.13694958795903
 30
0.0
 11
204.7369036477785
 21
54.53694958795927
 31
0.0
  0
DIMENSION
  5
547C
  8
MARK
  2
*D34
 10
176.2369036477786
 20
70.14063065391173
 30
0.0
 11
181.2369036477784
 21
71.18563065391173
 31
0.0
 70
    32
 13
186.2369036477781
 23
67.15190416418284
 33
0.0
 14
176.2369036477786
 24
61.35572897820373
 34
0.0
  0
DIMENSION
  5
5489
  8
MARK
  2
*D35
 10
204.7369036477787
 20
70.14083229982083
 30
0.0
 11
195.4869036477784
 21
71.18583229982083
 31
0.0
 70
    32
 13
186.2369036477781
 23
67.15190416418284
 33
0.0
 14
204.7369036477787
 24
60.13694958795902
 34
0.0
  0
DIMENSION
  5
5496
  8
MARK
  2
*D36
 10
204.7369036477787
 20
75.26088746484567
 30
0.0
 11
190.4869036477787
 21
76.30588746484567
 31
0.0
 70
    32
 13
176.2369036477786
 23
61.35572897820373
 33
0.0
 14
204.7369036477787
 24
60.13694958795903
 34
0.0
  0
LINE
  5
54A4
  8
MARK
 10
193.4869036477791
 20
57.33694958795945
 30
0.0
 11
213.7562790669725
 21
43.1441801246376
 31
0.0
  0
DIMENSION
  5
54A5
  8
MARK
  2
*D37
 10
175.2369036477781
 20
57.33694958795934
 30
0.0
 11
215.3073885705564
 21
50.45697711905557
 31
0.0
 70
    34
 13
193.4869036477791
 23
57.33694958795945
 33
0.0
 14
214.7047778314008
 24
42.4800341398023
 34
0.0
 15
205.7369036477786
 25
57.33694958795934
 35
0.0
 16
215.454685899241
 26
47.86097330159188
 36
0.0
  0
DIMENSION
  5
54B4
  8
MARK
  2
*D38
 10
175.2369036477781
 20
57.33694958795934
 30
0.0
 11
5.930973012713736
 21
225.5738203525001
 31
0.0
 70
    34
  1
 
 13
193.4869036477791
 23
57.33694958795923
 33
0.0
 14
214.7047778314008
 24
72.19386503611638
 34
0.0
 15
205.7369036477786
 25
57.33694958795934
 35
0.0
 16
216.9170540968411
 26
62.1748864996766
 36
0.0
  0
LINE
  5
54E1
  8
MARK
 10
193.4869036477791
 20
57.33694958795923
 30
0.0
 11
213.7562790669725
 21
71.52971905128108
 31
0.0
  0
TEXT
  5
5539
  8
MARK
  6
CONTINUOUS
 62
     3
 10
216.3419909557175
 20
63.01402596171195
 30
0.0
 40
1.25
  1
35°
 50
107.5
  0
INSERT
  5
553C
  8
標註線
  2
*X44
 10
0.0
 20
0.0
 30
0.0
  0
DIMENSION
  5
559D
  8
MARK
  2
*D40
 10
249.4377069508221
 20
70.15994184441911
 30
0.0
 11
240.9377069508221
 21
71.20494184441911
 31
0.0
 70
    32
 13
232.4377069508221
 23
62.24442687607109
 33
0.0
 14
249.4377069508221
 24
62.24442687607109
 34
0.0
  0
INSERT
  5
55AB
  8
0
  2
*X45
 10
0.0
 20
0.0
 30
0.0
  0
ENDSEC
  0
EOF
